Trấn Thành: Cười Đủ Kiểu 2014 NTSC DVD5

DownloaddownloadTrấn Thành: Cười Đủ Kiểu 2014 NTSC DVD5Unbookmarked
Social

Uploaded bytuandaica (VIP) at 2013-12-28 23:05:02
Small DescriptionTrấn Thành: Cười Đủ Kiểu 2014
Basic InfoSize: 7.12 GB
Category: Movies
Genre: Hài Hước
Source: DVD
Standard: SD
Actionreport Report torrent
Hot MeterViews: 2471
Hits: 1143
Snatched: 867 x time(s)
Last Action: 2014-04-19 15:46:34
Peers21 Seeder | 1 Leecher
Thanks by  windcvs Thursday009 opwin Squall654321 lien1959 solus183 longjk2505 uyencd ryanduy tktung duonghung1308 haomaru10 KYTHUAT max13 stormad hangbinhdan muadaroi Battousai_8000 mrspi metallicavn and more (thanks from 147 users in total)
Related
image

Sau hơn một năm dồn sức thực hiện, MC Trấn Thành vừa cho ra mắt đĩa DVD thứ 2 trong sự nghiệp diễn hài của anh.

Trong DVD có tên gọi “Cười đủ kiểu”, Trấn Thành sẽ trổ tài chọc cười khán giả bằng việc hóa thân trong nhiều vai diễn khác nhau, từ một ông già bán tạp hóa khó tính đến một anh chàng bán kẹo kéo nuôi ước mơ trở thành ngôi sao trong giới showbiz Việt và cả người phục vụ bàn có tính tình quái đản. DVD gồm 3 tiểu phẩm: “Khó ở”, “Mộng Sao”, “Quán lạ” với sự tham gia diễn xuất của nhiều gương mặt nghệ sĩ phía Nam quen thuộc như: Chí Tài, Cát Phượng, Hữu Nghĩa, Tiểu Bảo Quốc… Đặc biệt, cô bé được mệnh danh “thần đồng hát dân ca” Phương Mỹ Chi cũng sẽ góp mặt với một vai diễn nhỏ. Sau DVD này, Trấn Thành sẽ dồn sức thực hiện liveshow sân khấu đầu tiên vào đầu tháng 1-2014.


image image image

Quote
MEDIAINFO
General
Complete name                            : G:\VIDEO_TS\VTS_01_1.VOB
Format                                   : MPEG-PS
File size                                : 977 MiB
Duration                                 : 17mn 59s
Overall bit rate                         : 7 589 Kbps

Video
ID                                       : 224 (0xE0)
Format                                   : MPEG Video
Format version                           : Version 2
Format profile                           : Main@Main
Format settings, BVOP                    : Yes
Format settings, Matrix                  : Custom
Format settings, GOP                     : Variable
Duration                                 : 17mn 59s
Bit rate                                 : 7 246 Kbps
Width                                    : 720 pixels
Height                                   : 480 pixels
Display aspect ratio                     : 16:9
Frame rate                               : 29.970 fps
Standard                                 : NTSC
Color space                              : YUV
Chroma subsampling                       : 4:2:0
Bit depth                                : 8 bits
Scan type                                : Interlaced
Scan order                               : Top Field First
Compression mode                         : Lossy
Bits/(Pixel*Frame)                       : 0.700
Time code of first frame                 : 00:00:00;00
Time code source                         : Group of pictures header
Stream size                              : 933 MiB (95%)

Audio
ID                                       : 192 (0xC0)
Format                                   : MPEG Audio
Format version                           : Version 1
Format profile                           : Layer 2
Duration                                 : 17mn 59s
Bit rate mode                            : Constant
Bit rate                                 : 192 Kbps
Channel(s)                               : 2 channels
Sampling rate                            : 48.0 KHz
Compression mode                         : Lossy
Stream size                              : 24.7 MiB (3%)



Same genre with Trấn Thành: Cười Đủ Kiểu 2014 NTSC DVD5

It's Complicated 2009 720p BluRay DD5.1 x264-iNFLiKTEDAsphalt Playground 2012 720p BluRay DTS x264-TayTOFor A Good Time Call 2012 mHD-720p Bluray AC3 x264-TRiMWhat's Your Number 2011 Extended mHD-720p Bluray AC3 x264-TRiM500 Days of Summer 2009 mHD-720p Bluray AC3 x264-TRiMThe Heartbreak Kid 2007 DVD5 720p HDDVD x264-DONArmed and Dangerous 1986 720p BluRay FLAC 2 0 x264-DiRTY

Comment for Trấn Thành: Cười Đủ Kiểu 2014 NTSC DVD5

    Only members can create comment.