Trấn Thành: Cười Đủ Kiểu 2014 NTSC DVD5

DownloaddownloadTrấn Thành: Cười Đủ Kiểu 2014 NTSC DVD5Unbookmarked
Social

Uploaded bytuandaicaDisabled (VIP) at 2013-12-28 23:05:02
Small DescriptionTrấn Thành: Cười Đủ Kiểu 2014
Basic InfoSize: 7.12 GB
Category: Movies
Genre: Hài Hước
Source: DVD
Standard: SD
Actionreport Report torrent
Hot MeterViews: 2613
Hits: 1159
Snatched: 880 x time(s)
Last Action: 2014-07-22 14:08:15
Peers7 Seeder | 0 Leecher
Thanks by  windcvs Thursday009Leechwarned opwin Squall654321 lien1959 solus183 longjk2505 uyencd ryanduy tktung duonghung1308 haomaru10Leechwarned KYTHUAT max13 stormad hangbinhdan muadaroiLeechwarned Battousai_8000 mrspi metallicavn and more (thanks from 147 users in total)
Related
image

Sau hơn một năm dồn sức thực hiện, MC Trấn Thành vừa cho ra mắt đĩa DVD thứ 2 trong sự nghiệp diễn hài của anh.

Trong DVD có tên gọi “Cười đủ kiểu”, Trấn Thành sẽ trổ tài chọc cười khán giả bằng việc hóa thân trong nhiều vai diễn khác nhau, từ một ông già bán tạp hóa khó tính đến một anh chàng bán kẹo kéo nuôi ước mơ trở thành ngôi sao trong giới showbiz Việt và cả người phục vụ bàn có tính tình quái đản. DVD gồm 3 tiểu phẩm: “Khó ở”, “Mộng Sao”, “Quán lạ” với sự tham gia diễn xuất của nhiều gương mặt nghệ sĩ phía Nam quen thuộc như: Chí Tài, Cát Phượng, Hữu Nghĩa, Tiểu Bảo Quốc… Đặc biệt, cô bé được mệnh danh “thần đồng hát dân ca” Phương Mỹ Chi cũng sẽ góp mặt với một vai diễn nhỏ. Sau DVD này, Trấn Thành sẽ dồn sức thực hiện liveshow sân khấu đầu tiên vào đầu tháng 1-2014.


image image image

Quote
MEDIAINFO
General
Complete name                            : G:\VIDEO_TS\VTS_01_1.VOB
Format                                   : MPEG-PS
File size                                : 977 MiB
Duration                                 : 17mn 59s
Overall bit rate                         : 7 589 Kbps

Video
ID                                       : 224 (0xE0)
Format                                   : MPEG Video
Format version                           : Version 2
Format profile                           : Main@Main
Format settings, BVOP                    : Yes
Format settings, Matrix                  : Custom
Format settings, GOP                     : Variable
Duration                                 : 17mn 59s
Bit rate                                 : 7 246 Kbps
Width                                    : 720 pixels
Height                                   : 480 pixels
Display aspect ratio                     : 16:9
Frame rate                               : 29.970 fps
Standard                                 : NTSC
Color space                              : YUV
Chroma subsampling                       : 4:2:0
Bit depth                                : 8 bits
Scan type                                : Interlaced
Scan order                               : Top Field First
Compression mode                         : Lossy
Bits/(Pixel*Frame)                       : 0.700
Time code of first frame                 : 00:00:00;00
Time code source                         : Group of pictures header
Stream size                              : 933 MiB (95%)

Audio
ID                                       : 192 (0xC0)
Format                                   : MPEG Audio
Format version                           : Version 1
Format profile                           : Layer 2
Duration                                 : 17mn 59s
Bit rate mode                            : Constant
Bit rate                                 : 192 Kbps
Channel(s)                               : 2 channels
Sampling rate                            : 48.0 KHz
Compression mode                         : Lossy
Stream size                              : 24.7 MiB (3%)



Same genre with Trấn Thành: Cười Đủ Kiểu 2014 NTSC DVD5

The Hangover 2009 UNRATED 720p BluRay x264-DONBlue Streak 1999 mHD-720p Bluray AC3 x264-TRiMHow Do You Know 2010 BluRay 1080p DTS x264-DONThe Curse of the Jade Scorpion 2001 720p BluRay FLAC2 0 x264-EbPHot Fuzz 2007 1080p BluRay DTS x264-CtrlHDThe Five-Year Engagement 2012 UNRATED 720p BluRay X264-AMIABLEElection 1999 1080p BluRay DTS x264-CtrlHD

Comment for Trấn Thành: Cười Đủ Kiểu 2014 NTSC DVD5

    Only members can create comment.