Bí Mật Tam Giác Vàng 2013 ( VTV - Tập 1 & 2 & 3 & 4 )

Download Bí Mật Tam Giác Vàng 2013 ( VTV - Tập 1 & 2 & 3 & 4 ) 
Small Description
Basic Info
Uploaded bytuandaicaDisabled (VIP) at 2013-04-18 15:57:10
Action
Social
  • 70
Hot Meter
  • Views: 2123
  • Hits: 533
  • Snatched: 360 x time(s)
  • Last Action: 2014-07-30 06:53:55
Peers1 Seeder | 0 Leecher
Bí Mật Tam Giác Vàng


image


image


Đạo diễn: Nguyễn Dương
Diễn viên: Văn Báu, Hồ Phong, Bình Xuyên, Chu Hùng, Nguyễn Mạnh Trường, Hồng Nhung
Thể loại: Hành Động - Tình Cảm - Hình Sự
Sản xuất: VTV3,
Quốc gia: Việt Nam
Thời lượng: 4/38 Tập
Năm phát hành: 2012


Nội dung:
“Bí mật Tam giác vàng” do VTV đặt hàng Công ty Lasta sản xuất. Tác giả kịch bản là nhà văn, nhà báo Nguyễn Như Phong, một sĩ quan An ninh vốn nổi tiếng với những phóng sự về các chuyên án lớn mà anh được trực tiếp có mặt. Lasta cũng “chọn mặt gửi vàng” khi trao bộ phim truyền hình vào tay Nguyễn Dương, đạo diễn của các phim “Cổng Trời”, “30 ngày làm cha”, “Khát vọng thượng lưu”… và từng giành giải Mai vàng 2011, giải Đạo diễn xuất sắc tại Cánh diều vàng 2012.

Bộ phim lên sóng (dự kiến từ tối 15/10 trên VTV3) sẽ mang cho khán giả những thông tin vốn huyền bí về vùng đất mang tên “Tam giác vàng”, nơi ngã ba biên giới chưa một ngày ngơi tiếng súng, nơi cuộc chiến chống ma túy của nhân loại chưa biết khi nào mới chấm dứt.Bộ phim hấp dẫn ở những tình tiết gay cấn được cài cắm từ đầu đến cuối, hồi hộp và hấp dẫn. Tiết tấu phim nhanh nhưng vẫn có những điểm nhấn sâu lắng và lãng mạn với câu chuyện tình éo le. Hơi thở cuộc sống hiện đại nóng ấm trong phim qua số phận của những chiến sĩ Công an, số phận những kẻ buôn bán ma túy và cả số phận một bộ phận cán bộ tha hóa, biến chất. Từ đó, bật lên những lời cảnh báo không thừa với bất cứ ai, để cảm thông và chia sẻ sâu sắc với lực lượng Công an trong cuộc chiến chống tội phạm ma túy. Nhân dịp này, chúng tôi có cuộc trao đổi với tác giả kịch bản.


image


Quote
General
Complete name                            : D:\Bí Mật Tam Giác Vàng 2013 ( 38 Tập )\Bí Mật Tam Giác Vàng - Tập 2.mp4
Format                                   : MPEG-4
Format profile                           : Base Media / Version 2
Codec ID                                 : mp42
File size                                : 412 MiB
Duration                                 : 35mn 34s
Overall bit rate mode                    : Variable
Overall bit rate                         : 1 618 Kbps
Encoded date                             : UTC 2013-04-14 18:59:54
Tagged date                              : UTC 2013-04-14 18:59:54
gsst                                     : 0
gstd                                     : 2134191
gssd                                     : BD2F50E09HH1366268365366925
gshh                                     : r6---sn-42u-i5oz.c.youtube.com

Video
ID                                       : 1
Format                                   : AVC
Format/Info                              : Advanced Video Codec
Format profile                           : High@L3.1
Format settings, CABAC                   : Yes
Format settings, ReFrames                : 1 frame
Codec ID                                 : avc1
Codec ID/Info                            : Advanced Video Coding
Duration                                 : 35mn 34s
Bit rate                                 : 1 424 Kbps
Maximum bit rate                         : 4 069 Kbps
Width                                    : 1 280 pixels
Height                                   : 708 pixels
Display aspect ratio                     : 16:9
Frame rate mode                          : Constant
Frame rate                               : 30.000 fps
Color space                              : YUV
Chroma subsampling                       : 4:2:0
Bit depth                                : 8 bits
Scan type                                : Progressive
Bits/(Pixel*Frame)                       : 0.052
Stream size                              : 362 MiB (88%)
Tagged date                              : UTC 2013-04-14 19:01:29

Audio
ID                                       : 2
Format                                   : AAC
Format/Info                              : Advanced Audio Codec
Format profile                           : LC
Codec ID                                 : 40
Duration                                 : 35mn 34s
Bit rate mode                            : Variable
Bit rate                                 : 192 Kbps
Maximum bit rate                         : 202 Kbps
Channel(s)                               : 2 channels
Channel positions                        : Front: L R
Sampling rate                            : 44.1 KHz
Compression mode                         : Lossy
Stream size                              : 48.8 MiB (12%)
Title                                    : IsoMedia File Produced by Google, 5-11-2011
Encoded date                             : UTC 2013-04-14 19:00:53
Tagged date                              : UTC 2013-04-14 19:01:29




image


image image image



image




Other releases of Bí Mật Tam Giác Vàng 2013 ( VTV - Tập 1 & 2 & 3 & 4 )

Same genre with Bí Mật Tam Giác Vàng 2013 ( VTV - Tập 1 & 2 & 3 & 4 )

Vợ Chồng A Phủ 1961 DVDRip MP2 x264-TRiMBlood Letter 2012 mHD-720p Bluray AC3 x264-TRiMHài Thúy Nga Collection {DVDRip}Cham Tay Vao Noi Nho 720p VTV3HD x264-CwPVũ Điệu Tử Thần [DVD5.iso] Hoài Linh liveshow 6 - Gã Lưu Manh và Chàng Khờ 2013 1080p

Comment for Bí Mật Tam Giác Vàng 2013 ( VTV - Tập 1 & 2 & 3 & 4 )

Only members can create comment.