Five Fingers SBS 2012 Full 30 Exps HD720p USLT

Download Five Fingers SBS 2012 Full 30 Exps HD720p USLT 
Small DescriptionThiên Tài Bạc Phận - 30 Tập
Basic Info
Uploaded bytanhung238 (HAH) at 2013-04-06 01:31:27
Action
Social
  • 27
Hot Meter
  • Views: 1367
  • Hits: 205
  • Snatched: 67 x time(s)
  • Last Action: 2014-07-29 16:00:20
Peers1 Seeder | 0 Leecher
Thiên Tài Bạc Phân - Five Fingers

image

General
Unique ID                      : 172070112730639166550485499539369278679 (0x81737F8E3E26A19CA8E11854AA50BCD7)
Complete name                  : I:\PHIM BO\Thiên Tài Bạc Phân - Five Fingers SBS (2012) (30 Tap) HD720p USLT\01_ThienTaiBacMenh.720p.mkv
Format                         : Matroska
Format version                 : Version 2
File size                      : 1.72 GiB
Duration                       : 1h 6mn
Overall bit rate               : 3 718 Kbps
Movie name                     : 01_ThienTaiBacMenh_FiveFingers.H264.720p-KOR.mkv
Encoded date                   : UTC 2013-03-17 15:52:25
Writing application            : mkvmerge v2.9.7 ('Tenderness') built on Jul  1 2009 18:43:35
Writing library                : libebml v0.7.7 + libmatroska v0.8.1

Video
ID                             : 1
Format                         : AVC
Format/Info                    : Advanced Video Codec
Format profile                 : High@L5.1
Format settings, CABAC         : Yes
Format settings, ReFrames      : 2 frames
Codec ID                       : V_MPEG4/ISO/AVC
Bit rate                       : 3 000 Kbps
Width                          : 1 280 pixels
Height                         : 720 pixels
Display aspect ratio           : 16:9
Frame rate mode                : Variable
Original frame rate            : 29.970 fps
Color space                    : YUV
Chroma subsampling             : 4:2:0
Bit depth                      : 8 bits
Scan type                      : Progressive
Bits/(Pixel*Frame)             : 0.109
Writing library                : x264 core 50 svn-569
Encoding settings              : cabac=1 / ref=1 / deblock=1:0:0 / analyse=0x3:0x113 / me=hex / subme=5 / brdo=0 / mixed_ref=0 / me_range=16 / chroma_me=1 / trellis=1 / 8x8dct=1 / cqm=0 / chroma_qp_offset=0 / slices=1 / nr=0 / decimate=1 / bframes=2 / b_pyramid=0 / b_adapt=1 / b_bias=0 / direct=2 / wpredb=1 / bime=0 / keyint=250 / keyint_min=25 / scenecut=40 / rc=abr / bitrate=3000 / ratetol=1.0 / rceq='blurCplx^(1-qComp)' / qcomp=0.60 / qpmin=10 / qpmax=51 / qpstep=4 / ip_ratio=1.40 / pb_ratio=1.30
Default                        : Yes
Forced                         : No

Audio #1
ID                             : 2
Format                         : AC-3
Format/Info                    : Audio Coding 3
Mode extension                 : CM (complete main)
Format settings, Endianness    : Big
Codec ID                       : A_AC3
Duration                       : 1h 6mn
Bit rate mode                  : Constant
Bit rate                       : 320 Kbps
Channel(s)                     : 2 channels
Channel positions              : Front: L R
Sampling rate                  : 48.0 KHz
Bit depth                      : 16 bits
Compression mode               : Lossy
Stream size                    : 152 MiB (9%)
Title                          : 01_ThienTaiBacMenh_FiveFingers.H264.720p-KOR
Language                       : Vietnamese
Default                        : Yes
Forced                         : No

Audio #2
ID                             : 3
Format                         : AC-3
Format/Info                    : Audio Coding 3
Mode extension                 : CM (complete main)
Format settings, Endianness    : Big
Codec ID                       : A_AC3
Duration                       : 1h 6mn
Bit rate mode                  : Constant
Bit rate                       : 384 Kbps
Channel(s)                     : 2 channels
Channel positions              : Front: L R
Sampling rate                  : 48.0 KHz
Bit depth                      : 16 bits
Compression mode               : Lossy
Delay relative to video        : 31ms
Stream size                    : 182 MiB (10%)
Language                       : Korean
Default                        : No
Forced                         : No

Text
ID                             : 4
Format                         : UTF-8
Codec ID                       : S_TEXT/UTF8
Codec ID/Info                  : UTF-8 Plain Text
Language                       : English
Default                        : Yes
Forced                         : No


image

image

Tên phim: Five Fingers 다섯 손가락
Thời lượng: 50 tập
Lịch chiếu: 21h50' T7, CN
Đạo diễn: Choi Hyung Hun (War of the Roses, Obstetricts & Gynecology Doctors)
Kịch bản: Kim Sun Ok (Smile, Mom, Temptation of Wife)
Official Site: SBS


Nội dung: "Five Fingers" kể câu chuyện về bốn con người trẻ tuổi, mỗi người đều có những bi kịch phải vượt qua và ước mơ để vươn đến. Một gia đình tài phiệt sản xuất nhạc cụ có hai người con trai đều chơi piano. Người con cả (Joo Ji Hoon đóng) có tài âm nhạc thiên phú, luôn tìm cách vượt qua lịch sử bi thương của gia đình và người con thứ hai (Ji Chang Wook đóng) luôn ganh ghét với anh trai và cố gắng phá hoại hạnh phúc của anh mình. Một cô gái trẻ (Ham Eun Jung đóng), người luôn mơ ước trở thành nhạc công piano, nhưng vụ hỏa hoạn đã khiến mơ ước của cô tan tành, cuối cùng cô trở thành thợ làm tóc và làm ở một nhà hàng. Một cô gái trẻ khác (Lee Hae In đóng) cũng mang trong mình khát khao ấy khi học ở Ý, nhưng sau đó cô lại đột ngột trở về quê hương cùng với nỗi đau khắc sâu.

Other releases of Five Fingers SBS 2012 Full 30 Exps HD720p USLT

Same genre with Five Fingers SBS 2012 Full 30 Exps HD720p USLT

Suits S04E03 720p HDTV X264-DIMENSIONThree Kingdom 2010 480p 95/95The Flash 2014 S01E01 WEB-DL AAC x264-NOGRPJustified S01 720p BluRay DD5.1 x264-CtrlHDLegend of the Seeker S02 720p WEB-DL DD5.1 H.264-HDBBeautiful Life 2000 Complete 11Eps SD-JPN

Comment for Five Fingers SBS 2012 Full 30 Exps HD720p USLT

Only members can create comment.