Khong He Biet Gian 2013 DVD5

Download Khong He Biet Gian 2013 DVD5 
Small DescriptionHài Tết 2013 | Không Hề Biết Giận - Xuân Bắc
Basic Info
Uploaded byhoadm35 (User) at 2013-01-23 21:59:01
Action
Social
  • 49
Hot Meter
  • Views: 2547
  • Hits: 873
  • Snatched: 527 x time(s)
  • Last Action: 2014-10-31 16:36:08
Peers0 Seeder | 0 Leecher
Quote

General
Complete name                    : Khong he biet gian 2013 DVD5\VIDEO_TS\VTS_01_1.VOB
Format                           : MPEG-PS
File size                        : 1 024 MiB
Duration                         : 24mn 28s
Overall bit rate                 : 5 850 Kbps

Video
ID                               : 224 (0xE0)
Format                           : MPEG Video
Format version                   : Version 2
Format profile                   : Main@Main
Format settings, BVOP            : Yes
Format settings, Matrix          : Default
Duration                         : 24mn 28s
Bit rate mode                    : Constant
Bit rate                         : 5 500 Kbps
Width                            : 720 pixels
Height                           : 576 pixels
Display aspect ratio             : 4:3
Frame rate                       : 25.000 fps
Standard                         : PAL
Color space                      : YUV
Chroma subsampling               : 4:2:0
Bit depth                        : 8 bits
Scan type                        : Interlaced
Scan order                       : Top Field First
Bits/(Pixel*Frame)               : 0.530
Stream size                      : 964 MiB (94%)

Audio
ID                               : 192 (0xC0)
Format                           : MPEG Audio
Format version                   : Version 1
Format profile                   : Layer 2
Duration                         : 24mn 27s
Bit rate mode                    : Constant
Bit rate                         : 224 Kbps
Channel(s)                       : 2 channels
Sampling rate                    : 48.0 KHz
Stream size                      : 39.2 MiB (4%)



Chương trình “Không hề biết giận”được phóng tác từ giai thoại đặc sắc trong kho tàng chuyện cười dân gian Việt Nam: Một lão phú ông (Tự Long) khét tiếng giàu có và keo kiệt, mở hội kén chồng cho con gái bằng thách đố oái oăm: Chỉ gả con gái cho đứa nào khiến được lão tức giận! Nhiều “ứng viên” nuốt hận, không đến được với người đẹp chỉ vì không vượt qua lời thách đố này. Cho đến khi thằng Chăm (Xuân Bắc) – một chàng trai nghèo làm nghề chăn trâu, cùng với sự tiếp sức của quân sư Gia Cát Nô (Công Lý) xuất hiện.

Một cuộc đấu trí gay cấn giữa một bên láu cá, liên tục bày trò chọc giận và một bên tức nghẹn cổ nhưng vẫn phải nhe răng “Giận mày tao ở với ai?”! Chung cuộc ai là người chiến thắng, mời quý vị cùng theo dõi.

Khong He Biet Gian 2013 DVD5 screenshots

Tags

Other releases

Same genre with Khong He Biet Gian 2013 DVD5

Ván Bài Lật Ngửa 1982-1987 DVDRip AC3 x264-TRiMOnce Upon a Time in Vietnam 2013 mHD Bluray DTS x264-AlexVay Hong Tang 24 2013 720p VTV3HD x264-CwPHà Nội 12 ngày đêm 2002 DVDRip x264 AC3Hài Tết 2013 Cây Đèn Thần SDTV x264Hoài Linh Kén Vợ 2011 DVDRip AC3 x264

Comment for Khong He Biet Gian 2013 DVD5

Only members can create comment.