Liên Khúc Tình Yêu - Vũ Điệu Tình Nồng [From ASIA 69][1080p]

Download Liên Khúc Tình Yêu - Vũ Điệu Tình Nồng [From ASIA 69][1080p] 
Small Description[Toz Đua Xe Lu - 12h00 Ngày 07.08.2012 Start] - Liên Khúc Vũ Điệu Tình Nồng [From ASIA 69][1080p]
Basic Info
Uploaded byKenVinVIP (ƸӜƷ Kim Chi's VT Fan Club ƸӜƷ) at 2012-08-07 08:17:39
Action
Social
  • 46
Hot Meter
  • Views: 2784
  • Hits: 522
  • Snatched: 344 x time(s)
  • Last Action: 2014-08-31 08:00:45
Peers2 Seeder | 0 Leecher
Liên Khúc Vũ Điệu Tình Nồng [From ASIA 69][1080p]


Liên Khúc Tình Yêu - Vũ Điệu Tình Nồng [From ASIA 69][1080p] screenshots


- Giải Completed:
Nhất: 150GB + 200 Point
Nhì: 100GB + 150 Point
Ba: 50GB + 100 Point
- Từ hạng 4 đến hạng 10: 30GB
- Từ hạng 11 đến hạng 20: 15GB


(Giải complete sẽ theo quy định Upload/Down < 0.3 (Ratio <0.3) là không tính.)
[b][i]!!! Nghiêm cấm các trường hợp limit.
:30:

- 3 Giải upload nhiều nhất: (Tính sau khi có 10 completed)
Nhất: 100GB + 200 Point
Nhì: 70GB + 150 Point
Ba: 40GB + 100 Point

- !!!Chú Ý Ẩn Danh Không Tính Nhé.
[/i]

* Danh sách mạnh thường quân:
  01. KenyS4U (Tài Trợ Bạch Kim): 1000GB + 500 Point.
  02. nguytroa (Tài Trợ Vàng): 500GB.
  03. hung0976918183 (Tài Trợ Bạc): 3000 Point.
  04. vietux: 500 Point.
  05. TVC1846: 500 Point.

> Cảm tạ các nhà hảo tâm đã tài trợ cho giải!

Quote: Danh sách nhận giải:

- Giải Completed:
01. designervc
02. lead21pc
03. VampireLee

04. thanhdinhnd
05. aihaulady
06. nhatduongchi
07. phattrien
08. hoangocha99x2b
09. nhtlsofts
10. thinhnhan

11. trinhthien
12. phuongtoan0
13. lyvanhanh
14. TopNo1
15. duthli
16. chulun008cr
17. DINODRAGON
18. SuperCaiBang
19. tuyenpt
20. thik_downthoi

- Giải Upload:
01. thinhnhan
02. lead21pc
03. KenyS4U

>> Đã trao!!!


Liên Khúc Tình Yêu - Vũ Điệu Tình Nồng [From ASIA 69][1080p] screenshots
* AsiaDVD69 Greatest Songs Of All Time - Tác giả tác phẩm Liên khúc tuyệt vời, Tình ca muôn thuở (2012).
  - Liên khúc gồm các ca khúc: Vũ điệu tình nồng, Yêu nhau đi, Yêu em bằng trái tim anh, Nào biết nào hay, Tình yêu trong đời, Người tình ngàn dặm, Người tình, Hỡi em yêu.
  - Ca Sỹ: Cardin, Thùy Hương, Đổ Tiên Dung.
  - Hòa âm: Trúc Hồ.


Liên Khúc Tình Yêu - Vũ Điệu Tình Nồng [From ASIA 69][1080p] screenshots
Quote

General
Complete name                            : F:\Lien Khuc Vu Dieu Tinh Nong [From ASIA DVD69][1080p]\LK Vu Dieu Tinh Nong - Cardin ft Thuy Huong ft Do Tien Dung.m2ts
Format                                   : BDAV
Format/Info                              : Blu-ray Video
File size                                : 447 MiB
Duration                                 : 7mn 18s
Overall bit rate mode                    : Variable
Overall bit rate                         : 8 564 Kbps
Maximum Overall bit rate                 : 35.5 Mbps

Video
ID                                       : 4113 (0x1011)
Menu ID                                  : 1 (0x1)
Format                                   : AVC
Format/Info                              : Advanced Video Codec
Format profile                           : High@L4.1
Format settings, CABAC                   : Yes
Format settings, ReFrames                : 3 frames
Codec ID                                 : 27
Duration                                 : 7mn 18s
Bit rate mode                            : Variable
Bit rate                                 : 7 692 Kbps
Maximum bit rate                         : 24.0 Mbps
Width                                    : 1 920 pixels
Height                                   : 1 080 pixels
Display aspect ratio                     : 16:9
Frame rate                               : 29.970 fps
Color space                              : YUV
Chroma subsampling                       : 4:2:0
Bit depth                                : 8 bits
Scan type                                : MBAFF
Bits/(Pixel*Frame)                       : 0.124
Stream size                              : 406 MiB (91%)
Writing library                          : x264 core 116 r2044 392e762

Audio
ID                                       : 4352 (0x1100)
Menu ID                                  : 1 (0x1)
Format                                   : AC-3
Format/Info                              : Audio Coding 3
Mode extension                           : CM (complete main)
Format settings, Endianness              : Big
Codec ID                                 : 129
Duration                                 : 7mn 18s
Bit rate mode                            : Constant
Bit rate                                 : 448 Kbps
Channel(s)                               : 2 channels
Channel positions                        : Front: L R
Sampling rate                            : 48.0 KHz
Bit depth                                : 16 bits
Compression mode                         : Lossy
Delay relative to video                  : 23ms
Stream size                              : 23.4 MiB (5%)


Liên Khúc Tình Yêu - Vũ Điệu Tình Nồng [From ASIA 69][1080p] screenshots
Liên Khúc Tình Yêu - Vũ Điệu Tình Nồng [From ASIA 69][1080p] screenshots

Liên Khúc Tình Yêu - Vũ Điệu Tình Nồng [From ASIA 69][1080p] screenshots

Liên Khúc Tình Yêu - Vũ Điệu Tình Nồng [From ASIA 69][1080p] screenshots


Liên Khúc Tình Yêu - Vũ Điệu Tình Nồng [From ASIA 69][1080p] screenshots

[/b]

Tags

Other releases

Same genre with Liên Khúc Tình Yêu - Vũ Điệu Tình Nồng [From ASIA 69][1080p]

Liveshow Ly Hai - Tron Doi Ben Em 2014 1080p HDTV AAC2.0 x264Liveshow Cẩm Ly- Tự Tình Quê Hương 3 [2xDVD5]Paris By Night 107 2013 720P x264 AC3 Paris by Night 109 – 30th Anniversary Celebration - DVD 9 RemuxDie toten Hosen: Live in Buenos Aires 2012 1080i Blu-ray AVC DTS-HD MA 5.1-HDGeekLiên Khúc Nếu Một Ngày - [From ASIA 69][1080p]

Comment for Liên Khúc Tình Yêu - Vũ Điệu Tình Nồng [From ASIA 69][1080p]

Only members can create comment.