Những Clips Cắt Từ Paris By Night 105 - The Lovers mHD-720p x264 AC3 - [Tiếp Theo]

Download Những Clips Cắt Từ Paris By Night 105 - The Lovers mHD-720p x264 AC3 - [Tiếp Theo] 
Small DescriptionClips Cắt Từ Liveshow PBN 105.
Basic Info
Uploaded byKenVinVIPLeechwarned (ƸӜƷ Kim Chi's VT Fan Club ƸӜƷ) at 2012-07-04 16:17:36
Action
Social
  • 24
Hot Meter
  • Views: 2085
  • Hits: 290
  • Snatched: 96 x time(s)
  • Last Action: 2014-07-29 11:10:18
Peers0 Seeder | 1 Leecher
Related
Name
Paris By Night 108 - ThoiGian mHD-720p Bluray AC3 x264-TRiM24
Paris By Night 110 : Phát Lộc Đầu Năm DVD921
Paris by Night 109 – 30th Anniversary Celebration [DVD5] [ISO]16
Paris by Night 109 DVDRip AC3-5.1-SDvB13
Paris By Night 110 Phat Loc Dau Nam DVD5 Remux13
Tổng hợp hài kịch PARIS BY NIGHT12
Paris By Night 106 - Silk mHD-720p Bluray AC3 x264-TRiM10
Thuy Nga Paris by Night 107 Nguyen Ngoc Ngan 20 Nam San Khau 720p BluRay DD5.1 x..8
Paris By Night 107 - Nguyen Ngoc Ngan 20 Nam San Khau mHD-720p Bluray AC3 x264-T..6
Tổng hợp Thúy nga Paris by night từ 1 đến 105 [DVD5, DVD9]6
Thuy Nga Paris By Night 109 VIP PARTY NTSC DVD96
Paris By Night 105 The Lovers mHD-720p Bluray AC3 x264-TRiM6
Paris By Night 107 2013 m-HD 720P x264 AC35
Paris by Night 59 : Cây Đa Bến Cũ DVDRip AC3 x264-HDViE4
Paris By Night 108 Time - Thời Gian - DVD54
Thuy Nga Paris By Night DVD Pack 2 (11 - 20)4
Thuy Nga Paris by Night 108 Thoi Gian 720p BluRay AC3 x264-EbP4
Thuy Nga Paris By Night DVD Pack 4 (31 - 40)3
PARIS BY NIGHT 109 VIP PARTY BLURAY 1080P3
Paris by Night 109 – 30th Anniversary Celebration [DVD9] [Remux]3
Paris By Night 109 30th ANNIVERSARY CELEBRATION Bluray Remux AVC 1080i3
Thuy Nga Paris By Night DVD Pack 1 (01 - 10)3
Paris By Night 106 - Lụa NTSC DVD93
Paris By Night 109 30th ANNIVERSARY CELEBRATION Bluray3
Paris By Night 108 Time - Thời Gian - DVD92
Thúy Nga - Paris By Night 100-101-102-103-DVDRIP-AC32
{TNCD507} Various Artists - Người Tình (2012)[FLAC]2
Paris by Night 106 NTSC DVD AC3 x264-SDvB1
Paris By Night 106 - Lụa - [DVD5]1
Paris By Night 106 Bluray1
Tuyển tập hài Thúy Nga Paris By Night DVDrip1
Liên Khúc Paris By Night - Collection (7CDs) [WAV]1
Paris By Night 108 Time 1080i Blu-ray AVC DD5.11
Thuy Nga Paris By Night DVD Pack 7 (61 - 70)1
Thúy Nga VStar - Tứ Kết+Bán Kết 2012 3 DVD90
Paris By Night 104: Beginnings 720p BluRay x264-EbP0
Paris By Night Karaoke 44 - Nửa Vầng Trăng0
Paris By Night 105 Người Tình - The Lovers 1080i BluRay x2640
Paris By Night 70 Karaoke Hanh Phuc Dau Nam DVD90
Paris By Night Karaoke 60 - Về Miền Viễn Đông - DVD90
Những Clips Cắt Từ Paris By Night 105 - The Lovers mHD-720p x264 AC30
Thúy nga Paris By Night 104 - Beginning [DVD5/ISO]0
Paris By Night Karaoke 41 - Nguoi Tinh Que Huong DVD 9 _iso0
Paris By Night Karaoke 61 - Go Cua Trai Tim DVD9 _Iso0
Paris by night 99 - Toi la nguoi Viet Nam [ISO]0
Paris by Night 68 : Nửa Vầng Trăng DVDRip DualAudio x264-Alex0
[Paris By Night]Thuy Nga 69 - Song ca no tinh[DVD9]0
Paris by night 102 dvd90
Paris By Night Karaoke 55 - XUAN TRONG KY NIEM (DVD9)0
Thúy Nga VStar - Tứ Kết+Bán Kết 2012 3 DVD50
Paris By Night Karaoke 26: Chúng Ta Ði Mang Theo Quê Huong [DVD9]0
Thuy Nga 950
Paris By Night Karaoke 45 - Nợ Tình - Tuyệt Phẩm Song Ca DVD90
Paris By Night Karaoke 56 Đường Xưa0
Paris By Night 94 – 25th Anniversary DVD50
Paris by Night 99 DVDRip By Andy Hustech0
Những Clips Cắt Từ Paris By Night 105 - The Lovers mHD-720p x264 AC3 - [Tiếp Theo]


image



image

- Paris by Night 105: "Người Tình - The Lovers" là chương trình Đại nhạc hội trực tiếp thâu hình do Trung tâm Thúy Nga tổ chức vào hai ngày:
  Thứ 7, 17 tháng 3 năm 2012 - 8:30pm
  Chủ Nhật, 18 tháng 3 năm 2012 - 1:30pm

- Chương trình được thu hình tại Foxwoods Resort Casino tại Mashantucket Connecticut, Hoa Kỳ.
- Đây là chương trình Paris By Night được quay ở vị trí xa nhất từ trước đến nay về phía Đông Hoa Kỳ và là lần đầu tiên quay ở tiểu bang Connecticut. Chương trình cũng có sự xuất hiện lần đầu của ca sĩ Khánh Lâm.

image
01. Dạ khúc cho tình nhân – Thu Phương
02. Giận anh – Diễm Sương
03. Có khi nào rời xa - Trịnh Lam
04. Những lời mê hoặc – Lam Anh
05. Ngó lơ – Mai Tiến Dũng
06. Chàng - Quỳnh Vi
07. Cho anh ngày mới - Tóc Tiên
08. Nụ hồng Valentine - Ngọc Anh
09. Người tình Johnny - Như Loan
10. Ngỡ một lần em quay về - Minh Tuyết & Bằng Kiều
11. Tình hờ - Thế Sơn


[/i]* Phần Trước download tại đây![/i][em9]

image
Quote

General
Complete name: F:\Videos From PBN 105 [Tiep Theo]\01 Da Khuc Cho Tinh Nhan - Thu Phuong mHD.720p.mkv
Format                                   : Matroska
Format version                           : Version 2
File size                                : 96.7 MiB
Duration                                 : 5mn 9s
Overall bit rate                         : 2 624 Kbps
Encoded date                             : UTC 2012-07-04 07:21:45
Writing application                      : mkvmerge v5.6.0 ('Kenya Kane') built on May 27 2012 16:44:04
Writing library                          : libebml v1.2.3 + libmatroska v1.3.0

Video
ID                                       : 1
Format                                   : AVC
Format/Info                              : Advanced Video Codec
Format profile                           : High@L4.1
Format settings, CABAC                   : Yes
Format settings, ReFrames                : 5 frames
Muxing mode                              : Header stripping
Codec ID                                 : V_MPEG4/ISO/AVC
Duration                                 : 5mn 9s
Bit rate                                 : 2 124 Kbps
Width                                    : 1 280 pixels
Height                                   : 720 pixels
Display aspect ratio                     : 16:9
Frame rate                               : 29.970 fps
Color space                              : YUV
Chroma subsampling                       : 4:2:0
Bit depth                                : 8 bits
Scan type                                : Progressive
Bits/(Pixel*Frame)                       : 0.077
Stream size                              : 78.2 MiB (81%)
Language                                 : English
Default                                  : Yes
Forced                                   : No

Audio
ID                                       : 2
Format                                   : AC-3
Format/Info                              : Audio Coding 3
Mode extension                           : CM (complete main)
Format settings, Endianness              : Big
Muxing mode                              : Header stripping
Codec ID                                 : A_AC3
Duration                                 : 5mn 9s
Bit rate mode                            : Constant
Bit rate                                 : 448 Kbps
Channel(s)                               : 6 channels
Channel positions                        : Front: L C R, Side: L R, LFE
Sampling rate                            : 48.0 KHz
Bit depth                                : 16 bits
Compression mode                         : Lossy
Delay relative to video                  : 26ms
Stream size                              : 16.5 MiB (17%)
Default                                  : Yes
Forced                                   : No


image
image
image
image
image
image
image
image
image
image
image
image


image

Same genre with Những Clips Cắt Từ Paris By Night 105 - The Lovers mHD-720p x264 AC3 - [Tiếp Theo]

OneRepublic (One Republic) - Official Discography - Discography 34CD (8 Albums, 3 EPs, 23 Singles) - 2007-2013 [MP3] [320Kbps]Various Artists - 17 Top Ballads Of The Year (1995) [FLAC]NOW The Hits Of Spring 2012Backstreet Boys Collection (1995-2009) [FLAC] {20CDs} {VNbits}Best Audiophile Voices Selection (2006) [FLAC (tracks +  cue)]Various Artists - NOW That's What I Call Love 2012

Comment for Những Clips Cắt Từ Paris By Night 105 - The Lovers mHD-720p x264 AC3 - [Tiếp Theo]

Only members can create comment.