Hài kịch Vietnamese Idols - Đài truyền hình Giai điệu miệt vườn [DVDRip AC3 x264] - SDvB

DownloaddownloadHài kịch Vietnamese Idols - Đài truyền hình Giai điệu miệt vườn [DVDRip AC3 x264] - SDvBUnbookmarked
Social

Uploaded byHVTXXTVH (Administrator) at 2012-05-14 14:31:08
Small DescriptionKiều Oanh, Chí Tài, Hoài Linh, Lê Tín
Basic InfoSize: 692.84 MB
Category: Movies
Genre: Phim Việt Nam
Source: DVD
Standard: SD
Actionreport Report torrent
Hot MeterViews: 2463
Hits: 477
Snatched: 278 x time(s)
Last Action: 2014-04-13 18:01:47
Peers1 Seeder | 0 Leecher
Thanks by  phupro208 nam1976 hoangviet1990 phancaotai letrungxd86 thangksd kamkam eddietruong luckysnake KYTHUAT matbaojzz tungphan1026 haohieu letruong_QK HVTXXTVH huylabo vam Richard Do Yomen thehaopy and more (thanks from 31 users in total)
Related
image

image

image


General
Unique ID                                : 177166347958942094206700693256988606446 (0x8548FF5A026C90DA9AF8A569D6893FEE)
Complete name                            : D:\HVTXXTVH\TORRENTS\Hài kịch Vietnamese Idols - Kiều Oanh, Chí Tài, Hoài Linh, Lê Tín.mkv
Format                                   : Matroska
Format version                           : Version 2
File size                                : 693 MiB
Duration                                 : 37mn 21s
Overall bit rate                         : 2 593 Kbps
Encoded date                             : UTC 2012-05-14 07:15:36
Writing application                      : mkvmerge v5.4.0 ('Piper') built on Mar 10 2012 13:34:39
Writing library                          : libebml v1.2.3 + libmatroska v1.3.0

Video
ID                                       : 2
Format                                   : AVC
Format/Info                              : Advanced Video Codec
Format profile                           : High@L4.1
Format settings, CABAC                   : Yes
Format settings, ReFrames                : 9 frames
Muxing mode                              : Header stripping
Codec ID                                 : V_MPEG4/ISO/AVC
Duration                                 : 37mn 21s
Bit rate                                 : 2 094 Kbps
Width                                    : 716 pixels
Height                                   : 478 pixels
Display aspect ratio                     : 16:9
Original display aspect ratio            : 16:9
Frame rate                               : 29.970 fps
Color space                              : YUV
Chroma subsampling                       : 4:2:0
Bit depth                                : 8 bits
Scan type                                : Progressive
Bits/(Pixel*Frame)                       : 0.204
Stream size                              : 559 MiB (81%)
Language                                 : English
Default                                  : Yes
Forced                                   : No

Audio
ID                                       : 1
Format                                   : AC-3
Format/Info                              : Audio Coding 3
Mode extension                           : CM (complete main)
Format settings, Endianness              : Big
Muxing mode                              : Header stripping
Codec ID                                 : A_AC3
Duration                                 : 37mn 21s
Bit rate mode                            : Constant
Bit rate                                 : 448 Kbps
Channel(s)                               : 6 channels
Channel positions                        : Front: L C R, Side: L R, LFE
Sampling rate                            : 48.0 KHz
Bit depth                                : 16 bits
Compression mode                         : Lossy
Delay relative to video                  : 31ms
Stream size                              : 120 MiB (17%)
Default                                  : Yes
Forced                                   : No

Same genre with Hài kịch Vietnamese Idols - Đài truyền hình Giai điệu miệt vườn [DVDRip AC3 x264] - SDvB

Cuoi 2013 - Vui Nhu Tet DVD PAL AC3 x264-PISHoài Linh Kén Vợ 2011 DVDRip AC3 x264Vua Di Vua Khoc 2014 E02 720p HDTV x264-VTV3HDKhông Cân Sức 2010 DVDHài Xuân Hinh 2013 DVD5Chơi Vơi 2009 DVDRip XViDVũ Điệu Tử Thần [DVD5.iso]

Comment for Hài kịch Vietnamese Idols - Đài truyền hình Giai điệu miệt vườn [DVDRip AC3 x264] - SDvB

    Only members can create comment.